#TITLE:Summer Vacation;
#SUBTITLE:- Lamune Ending;
#ARTIST:Murata Ayumi;
#TITLETRANSLIT:;
#SUBTITLETRANSLIT:;
#ARTISTTRANSLIT:;
#CREDIT:LK4D4;
#BANNER:Ramune Banner.avi;
#BACKGROUND:Ramune bg1.jpg;
#LYRICSPATH:Ramune E.lrc;
#CDTITLE:lkred1.png;
#MUSIC:Ramune Audio.mp3;
#OFFSET:-0.240;
#SAMPLESTART:42.852;
#SAMPLELENGTH:12.000;
#SELECTABLE:YES;
#BPMS:0.000=134.000;
#STOPS:;
#BGCHANGES:0.100=Ramune Video.avi=1.000=0=0=1,
201.000=Ramune bg2.jpg=1.000=1=0=0,
99999=-nosongbg-=1.000=0=0=0 // don't automatically add -songbackground-
;
// cache tags:
#FIRSTBEAT:10.000;
#LASTBEAT:202.000;
#SONGFILENAME:songs/Otaku's Dream 3rd Anime Mix/[LK4D4] Summer Vacation - Ramune ED/Ramune E.sm;
#HASMUSIC:1;
#HASBANNER:1;
#MUSICLENGTH:91.036;
// end cache tags

//---------------dance-single - Blank----------------
#NOTES:
     dance-single:
     Blank:
     Challenge:
     9:
     0.709,0.693,1.000,0.066,0.417,323.000,123.000,6.000,66.000,0.000:

0000
0000
0000
0000
,
0000
0000
0000
0000
,
0000
0000
0000
0000
0110
0100
0010
1000
,
0001
0000
0100
0000
0010
0000
1000
0000
0100
0001
0100
1000
0100
0001
0100
1000
,
0010
0001
0010
1000
0010
0001
0010
0000
1010
0000
M0M0
0000
0101
0000
0M0M
0000
,
1100
0000
0000
0001
0000
0000
0010
0000
0100
0000
1000
1010
0000
0000
0010
0000
,
0100
0000
0001
0011
0000
0000
0000
0000
1010
0000
M0M0
0000
0011
0000
00MM
0000
,
1010
0000
0100
0001
0000
0000
0010
0100
1000
0000
0001
0010
0000
0000
1010
0000
,
1100
0000
0100
1000
0010
1000
0100
0000
0011
0000
00MM
0000
0101
0000
0M0M
0000
,
0011
0000
0000
0010
0000
0000
0100
0000
1000
0000
0010
0101
0000
0000
0100
0000
,
0001
0000
0010
1100
0000
0000
0000
0000
1001
0000
M00M
0000
0110
0000
0MM0
0000
,
1001
0000
0000
0001
0000
0000
0010
0000
0100
0000
0001
1010
0000
0000
0001
0000
,
0210
0000
0001
1000
0001
1000
0001
0310
,
1001
0000
1000
1100
0000
0001
0011
0100
,
1010
M0M0
0011
00MM
1100
MM00
0101
1000
,
1010
0000
0001
0011
0000
0110
0000
0000
,
1001
0000
0110
0000
1001
0000
0110
0001
,
0101
0000
1000
1010
0000
0001
1100
0000
,
0011
00MM
1100
MM00
1010
M0M0
0101
0010
,
1010
0000
0001
0101
0000
1001
0000
0001
,
0100
0000
1000
1100
0000
0000
0001
0000
0010
0000
1000
1010
0000
0000
0001
0000
,
0100
0000
1000
1100
0000
0000
0001
0000
0010
0000
1000
1010
0000
0000
0010
0000
,
0001
0000
0100
1010
0000
0000
0010
0000
1000
0000
0100
0011
0000
0000
0010
0000
,
0100
0000
1000
1010
0000
0000
0010
0000
0100
0000
0001
0011
0000
0000
1000
0000
,
0100
0000
0001
0101
0000
0000
1000
0000
0010
0000
0001
0011
0000
0000
1000
0000
,
0100
0000
0001
0101
0000
0000
1000
0000
0010
0000
0001
0011
0000
0000
0010
0000
,
1000
0000
0001
1100
0000
0000
0010
0000
0001
0000
1000
0101
0000
0000
0100
0000
,
0001
0000
1000
0110
0000
M00M
0MM0
0000
M0M0
0M0M
M0M0
0000
0101
0000
1000
0000
,
0010
0100
0000
0011
0000
0000
0001
0000
0010
0100
0000
1010
0000
0000
1000
0000
,
0010
0100
0000
0011
0000
0000
1001
0000
0110
0000
0MM0
0000
0110
0000
0010
0000
,
0100
0001
0000
1001
0000
0000
1000
0000
0100
0010
0000
1001
0000
0000
0001
0000
,
0100
0010
0000
1001
0000
0000
1100
0000
0101
0000
0M0M
0000
1010
0000
0001
0000
,
0100
1000
0000
0101
0000
0000
0001
0000
0010
1000
0000
0011
0000
0000
0100
0000
,
1000
0010
0000
0110
0000
0000
1001
0000
0110
0000
0MM0
0000
0011
0000
0100
0000
,
1000
0000
0000
0000
1010
0000
0000
0000
0101
0000
0000
1010
0000
0000
0011
0000
,
0000
1100
0000
1001
0220
0000
0000
0330
,
1000
0010
1000
0100
0010
0001
0100
0001
0010
0100
1000
0010
0100
0001
1000
0000
,
0011
0000
00MM
0000
1010
0000
M0M0
0000
0011
0000
0000
1100
0000
0000
0100
0000
,
0010
0000
0001
0101
0000
0000
0100
0000
0010
0000
1000
1100
0000
0000
0000
0000
,
0101
0000
0M0M
0000
1100
0000
MM00
0000
0101
0000
0001
0010
0000
0000
0010
0100
,
1000
0000
0100
0010
0000
0000
0100
0000
0101
0000
0100
1000
0100
0001
0100
0000
,
1010
0000
M0M0
0000
0011
0000
00MM
0000
1010
0000
0000
0010
0000
0000
0100
0000
,
0001
0000
1000
0110
0000
0000
0010
0000
1000
0000
0001
0110
0000
0000
0000
0000
,
1010
0000
M0M0
0000
0101
0000
0M0M
0000
1100
0000
0000
0100
0000
0000
0010
0000
,
0001
0000
0100
1000
0000
0000
0100
0000
2010
0000
0000
0000
0001
0000
0010
0000
,
0001
0010
0001
3100
0011
0000
0100
0101
,
0000
0010
1010
0000
1001
M00M
0110
0MM0
,
1001
M00M
0110
0010
1100
0000
0010
0101
,
0000
1010
0000
0000
1001
0000
0110
0000
,
1001
0000
0110
0000
0011
0000
0101
1010
,
0000
2002
0000
0000
3003
0000
0000
0000
;

//---------------dance-single - Blank----------------
#NOTES:
     dance-single:
     Blank:
     Hard:
     8:
     0.673,0.693,1.000,0.066,0.406,325.000,98.000,6.000,0.000,0.000:



0000
0000
0000
0000
,
0000
0000
0000
0000
,
0000
0000
0000
0000
0110
0100
0010
1000
,
0001
0000
0100
0000
0010
0000
1000
0000
0001
0100
0001
0100
1000
0100
1000
0100
,
0010
0001
0010
0001
1000
0010
1000
0000
0110
0000
0000
0000
1100
0000
0000
0000
,
0011
0000
0000
0101
0000
0000
0100
0000
0010
0000
1000
0100
0000
0000
0010
0000
,
0001
0000
0100
0010
0000
0000
0000
0000
1100
0000
0000
0000
1010
0000
0000
0000
,
0101
0000
1000
0010
0000
0000
0100
0001
1000
0000
1000
0100
0000
0000
0100
0000
,
0011
0000
0001
0010
0001
0010
0001
0000
0101
0000
0000
0000
1010
0000
0000
0000
,
1100
0000
0000
0011
0000
0000
0001
0000
1000
0000
0010
0100
0000
0000
0001
0000
,
0010
0000
0100
1000
0000
0000
0000
0000
1010
0000
0000
0000
0011
0000
0000
0000
,
1100
0000
0000
0101
0000
0000
0001
0000
1000
0000
0100
0010
0000
0000
0100
0000
,
2001
0000
0010
0001
0010
0001
0010
3100
,
0011
0000
1000
0101
0000
0010
1100
0100
,
0110
0000
1001
0000
0110
0000
1001
1000
,
1010
0000
0001
0011
0000
1100
0000
0000
,
0110
0000
1001
0000
0110
0000
1001
0001
,
0101
0000
1000
1010
0000
0001
0011
0000
,
1001
0000
0110
0000
1001
0000
0110
0010
,
0011
0000
0100
0101
0000
1010
0000
0001
,
0100
0000
0010
1000
0000
0000
1000
0000
0100
0000
0010
0001
0000
0000
0001
0000
,
1000
0000
0010
0100
0000
0000
0100
0000
0001
0000
0010
0100
0000
0000
0100
0000
,
1000
0000
0010
0001
0000
0000
0001
0000
0010
0000
1000
0100
0000
0000
0100
0000
,
0001
0000
0100
1000
0000
0000
0100
0000
0001
0000
0100
1000
0000
0000
1000
0000
,
0010
0000
0100
0001
0000
0000
0001
0000
0010
0000
0100
1000
0000
0000
1000
0000
,
0001
0000
0010
1000
0000
0000
1000
0000
0010
0000
0100
1000
0000
0000
1000
0000
,
0100
0000
0001
0010
0000
0000
0010
0000
0001
0000
0100
0010
0000
0000
0010
0000
,
0001
0000
0100
1000
0000
0000
0100
0000
0010
0000
0000
0000
0010
0000
1000
0000
,
0001
0100
0000
0101
0000
0000
0001
0000
1000
0100
0000
1100
0000
0000
0001
0000
,
0010
0100
0000
0110
0000
0000
1001
0000
0110
0000
0000
0000
1000
0000
0100
0000
,
0010
0001
0000
0011
0000
0000
0001
0000
1000
0010
0000
1010
0000
0000
0010
0000
,
1000
0001
0000
1001
0000
0000
0110
0000
1001
0000
0000
0000
0001
0000
0010
0000
,
0100
1000
0000
1100
0000
0000
0100
0000
0010
0001
0000
0011
0000
0000
0001
0000
,
1000
0010
0000
1010
0000
0000
0011
0000
1010
0000
0000
0000
1000
0000
0001
0000
,
0011
0000
0000
0000
1100
0000
0000
0000
1010
0000
0000
0101
0000
0000
1001
0000
,
0000
0110
0000
0011
2200
0000
0000
3300
,
1000
0100
1000
0100
0010
0001
0010
0001
0100
0010
0100
0010
1000
0001
1000
0000
,
1001
0000
0000
0000
1010
0000
0000
0000
0011
0000
0000
0101
0000
0000
0100
0000
,
0010
0000
1000
0010
0000
0000
0010
0000
0100
0000
0001
0100
0000
0000
0000
0000
,
0011
0000
0000
0000
1010
0000
0000
0000
1100
0000
0100
0010
0000
0000
0001
1000
,
0100
0000
1000
0001
0000
0000
0110
0000
1001
0000
0010
0100
0010
0100
0010
0000
,
0110
0000
0000
0000
1100
0000
0000
0000
0101
0000
0000
1010
0000
0000
0010
0000
,
0100
0000
0001
0100
0000
0000
0100
0000
0010
0000
1000
0010
0000
0000
0000
0000
,
1100
0000
0000
0000
0101
0000
0000
0000
1100
0000
0000
0101
0000
0000
0001
0000
,
0010
0000
0100
1000
0000
0000
1000
0000
0012
0000
0000
0000
0010
0000
1000
0000
,
0010
1000
0010
0103
1010
0000
0100
0011
,
0000
0001
0110
0000
1001
0000
0110
0000
,
1001
0000
0110
0100
1100
0000
1000
0101
,
0000
1010
0000
0000
0110
0000
1001
0000
,
0110
0000
1001
0000
0001
0000
1000
0010
,
0000
0202
0000
0000
0303
0000
0000
0000
;

//---------------dance-single - Blank----------------
#NOTES:
     dance-single:
     Blank:
     Medium:
     6:
     0.548,0.499,0.868,0.055,0.247,265.000,79.000,5.000,0.000,0.000:



0000
0000
0000
0000
,
0000
0000
0000
0000
,
0000
0000
0000
0000
1001
1000
0100
0010
,
0001
1000
0100
0010
0001
0100
0010
1000
,
0001
0100
0010
1000
1010
0000
1100
0000
,
0011
0000
0000
0101
0000
0000
1000
0000
0010
0000
0000
0010
0000
0000
0100
0000
,
0001
0000
0000
0001
0000
0000
0000
0000
0011
0000
0000
0000
0101
0000
0000
0000
,
1010
0000
0000
1100
0000
0000
0001
0000
0010
0000
0000
0010
0000
0000
0100
0000
,
1000
0000
1010
1100
,
1010
0000
0000
0101
0000
0000
0100
0000
0010
0000
0000
1000
0000
0000
0100
0000
,
0010
0000
0000
0010
0000
0000
0000
0000
0101
0000
0000
0000
1100
0000
0000
0000
,
0011
0000
0000
1010
0000
0000
1000
0000
0001
0000
0000
0010
0000
0000
0100
0000
,
2000
0000
0001
0001
0001
0001
0001
3000
,
0110
1001
0110
1001
,
0110
1001
0110
1001
,
1010
0000
1100
1100
0000
0011
0000
0000
,
1010
1010
0011
0011
,
1001
0110
1001
0110
,
1001
0110
1001
0110
,
0011
0000
0101
0101
0000
1010
0000
0010
,
0100
0000
0100
0001
0000
0000
0001
0000
0010
0000
0010
0100
0000
0000
0100
0000
,
1000
0000
1000
0010
0000
0000
0010
0000
0100
0000
0100
0001
0000
0000
0001
0000
,
0010
0000
0010
1000
0000
0000
1000
0000
0010
0000
0010
0001
0000
0000
0001
0000
,
0100
0000
0100
1000
0000
0000
0001
0000
0100
0000
0100
1000
0000
0000
1000
0000
,
0100
0000
0100
0010
0000
0000
0010
0000
1000
0000
1000
0100
0000
0000
0100
0000
,
0010
0000
0010
0001
0000
0000
0001
0000
0010
0000
0010
1000
0000
0000
1000
0000
,
0010
0000
0010
0001
0000
0000
0001
0000
1000
0000
1000
0100
0000
0000
0100
0000
,
0001
0000
0100
0001
0000
0000
0000
0000
0000
0000
0000
0000
1000
0000
1000
0000
,
0010
0000
0000
0010
0000
0000
0100
0000
0100
0000
0000
0001
0000
0000
0010
0000
,
0010
0000
0000
0100
0000
0000
1000
0000
0010
0000
0000
0000
0010
0000
0010
0000
,
0100
0000
0000
0001
0000
0000
0001
0000
1000
0000
0000
1000
0000
0000
0100
0000
,
0001
0000
0000
0001
0000
0000
0100
0000
0010
0000
0000
0000
0001
0000
0001
0000
,
0100
0000
0000
1000
0000
0000
1000
0000
0100
0000
0000
0010
0000
0000
0010
0000
,
1000
0000
0000
0100
0000
0000
0010
0000
0001
0000
0000
0000
1000
0000
0010
0000
,
0100
0000
0000
0000
0010
0000
0000
0000
1000
0000
0000
0100
0000
0000
0010
0000
,
0000
0001
0000
0100
0002
0000
0000
0003
,
1000
0010
0001
0010
1000
0100
0001
0100
,
0110
0000
0000
0000
1100
0000
0000
0000
1010
0000
0000
0101
0000
0000
0001
0000
,
1000
0000
0000
0010
0000
0000
0010
0000
1000
0000
0000
0001
0000
0000
0000
0000
,
0011
0000
0000
0000
1010
0000
0000
0000
0011
0000
0000
1100
0000
0000
1000
0000
,
0001
0000
0000
0010
0000
0000
0100
0000
0010
0000
0000
0000
0000
0000
0000
0000
,
0101
0000
0000
0000
1100
0000
0000
0000
0101
0000
0000
1010
0000
0000
1000
0000
,
0001
0000
0000
0010
0000
0000
0010
0000
0001
0000
0000
0100
0000
0000
0000
0000
,
0011
0000
0000
0000
0101
0000
0000
0000
1100
0000
0000
1010
0000
0000
0010
0000
,
0100
0000
0000
0001
0000
0000
0010
0000
0200
0000
0000
0000
1000
0000
1000
0000
,
1000
1000
1000
0300
1100
0000
1010
0101
,
0000
0011
1100
0000
1001
0000
0110
0000
,
1001
0000
0110
0000
1100
0000
1100
0011
,
0000
0011
0000
0000
1001
0000
0110
0000
,
1001
0000
0110
0000
1000
0000
0001
0010
,
0000
2200
0000
0000
3300
0000
0000
0000
;

//---------------dance-single - Blank----------------
#NOTES:
     dance-single:
     Blank:
     Easy:
     5:
     0.471,0.499,0.857,0.044,0.016,218.000,78.000,4.000,0.000,0.000:




0000
0000
0000
0000
,
0000
0000
0000
0000
,
0000
0000
0000
0000
,
0000
0000
0000
0000
,
0000
0000
0011
1010
,
0011
0000
1010
1000
0010
0000
0100
0000
,
0001
0000
0000
0010
0000
0000
0000
0000
1100
0000
0000
0000
0101
0000
0000
0000
,
1100
0000
0101
0000
0001
0000
0100
0010
,
1000
0000
1010
1100
,
0101
0000
0011
0001
0010
0000
0100
0000
,
1000
0000
0000
0010
0000
0000
0000
0000
0011
0000
0000
0000
0101
0000
0000
0000
,
1100
0000
1010
1000
0010
0000
0100
0001
,
2000
0000
0000
0000
0000
0000
0000
3000
,
0010
0000
0100
0100
0000
0000
1100
0000
,
1010
0011
0101
0110
,
1001
0000
0010
0010
0000
0100
0000
0000
,
0011
1010
1100
0101
,
0010
0000
0100
0100
0000
0000
1001
0000
,
0110
1001
0110
0011
,
1010
0000
0010
0010
0000
0100
0000
0000
,
0100
0010
1000
0100
1000
0010
1000
0100
,
0010
0001
0100
0001
0010
0001
0100
1000
,
0100
0001
0010
1000
0010
0001
0100
0010
,
1000
0100
1000
0010
1000
0100
1000
0010
,
0100
0001
0010
0100
1000
0010
0001
0010
,
1000
0100
0001
0100
1000
0010
1000
0100
,
0010
0001
0100
0001
0010
1000
0010
0001
,
0100
1000
0100
0000
0001
0000
1000
1000
,
0010
1001
0100
1001
,
0010
0000
0100
0100
1001
0000
0110
0000
,
1000
0110
0001
0110
,
1000
0000
0001
0001
0110
0000
1010
0000
,
0100
0011
0100
1010
,
0100
0000
0001
0010
1010
0000
0100
0000
,
0101
0000
0000
0000
1010
0000
0000
0000
1100
0000
0000
0100
0000
0000
0010
0000
,
0000
0001
0000
0010
0200
0000
0000
0000
,
0300
0000
0000
0000
,
1010
1100
1010
1100
,
0100
0010
0001
0001
0010
0100
1000
0000
,
0011
0101
0011
0101
,
1000
0000
0010
0100
0001
0000
0000
0000
,
1010
0011
1010
0011
,
0001
1000
0100
0100
1000
0001
0010
0000
,
1100
0101
1100
0101
,
0100
0000
0010
1000
0002
0000
0000
0000
,
0000
0000
0000
0003
1010
0000
1010
0000
,
0011
0011
1001
0110
,
1001
0110
1100
1100
,
0101
0101
0110
1001
,
0110
0000
1001
0000
1000
0000
0010
0100
,
0000
0002
0000
0000
0003
0000
0000
0000
;

//---------------dance-single - Blank----------------
#NOTES:
     dance-single:
     Blank:
     Beginner:
     3:
     0.341,0.388,0.264,0.044,0.000,189.000,24.000,4.000,0.000,0.000:




0000
0000
0000
0000
,
0000
0000
0000
0000
,
0000
0000
0000
0000
,
0000
0000
0000
0000
,
0000
0000
1000
1000
,
0001
0001
0100
0100
,
0010
0010
1000
1000
,
0100
0000
0100
0000
0010
0000
0010
0001
,
0001
0000
0010
0010
,
0100
0100
1000
1000
,
0001
0001
0100
0100
,
0010
0000
0010
0000
1000
0000
1000
0100
,
0200
0000
0000
0300
,
1000
0000
1000
0000
1000
1000
1000
0000
,
0001
0000
0001
0000
0001
0001
0001
0000
,
0100
0000
0100
0000
0100
0100
0100
0000
,
0010
0000
0010
0000
0010
0010
0010
0000
,
1000
0000
1000
0000
1000
1000
1000
0000
,
0100
0000
0100
0000
0100
0100
0100
0000
,
0010
0000
0010
0000
0010
0010
0010
0000
,
0001
0100
0001
0100
,
0010
1000
0010
1000
,
0100
1000
0100
1000
,
0001
0100
0001
0100
,
0001
1000
0001
1000
,
0100
0010
0100
0010
,
0001
1000
0001
0010
,
0100
1000
0000
0000
,
1000
1000
1000
0000
0010
0010
0010
0000
,
0100
0000
0001
0001
0001
0000
0000
0000
,
0010
0010
0010
0000
0100
0100
0100
0000
,
1000
0000
0010
0010
0010
0000
0000
0000
,
0100
0100
0100
0000
0001
0001
0001
0000
,
0010
0000
0100
0100
0100
0000
0000
0000
,
0010
0001
1000
0010
,
0100
0000
0001
0001
0020
0000
0000
0000
,
0030
0000
0000
0000
,
1100
1100
0101
0101
,
0100
0000
0010
0000
1000
0100
1000
0000
,
0011
0011
1010
1010
,
1000
0000
0001
0010
0001
0000
0000
0000
,
0101
0101
1100
1100
,
0100
0000
0010
0000
0001
0100
0001
0000
,
1010
1010
0011
0011
,
0001
0000
1000
0010
0200
0000
0000
0000
,
0000
0000
0000
0300
0010
0000
0010
0000
,
1000
1000
1100
1100
,
0011
0011
0001
0001
,
0100
0100
0110
1001
,
0110
0000
1001
0000
1000
0000
0100
0010
,
0000
0002
0000
0000
0003
0000
0000
0000
;
